Новая Бухта Wilbur`a

  • Док возвращается из отпуска! Ответил всем в "личке". Напомню - я _совсем_ не работаю в личке, прошу прощения. Мне это технически крайне неудобно.

Wilbur

Well-Known Member
28 Окт 2013
31,809
1,545
113
28
Gender
Male
Ах да. Название-то видео про античных фиванцев - скажете? :)
Искать фильм без названия - это не интересно :)
Фильм называется Sacred Band of Thebes.

IMG_20210504_191823_935.jpg


Дополнительно вот это нашёл :)
Ммм, статеечка. :)
Спасибо!


ПРосто картинка не очень :)
Наверное.
На нем не заметно разницы между обычной трансляцией канала и HD-трансляцией канала.
 
  • Like
Реакции: Свидетель

Свидетель

Well-Known Member
3 Янв 2020
1,308
600
113
55
Gender
Female
Авто.
И на ноуте, и на телефоне.
Ютубу видней. :)
Не издевайтесь над собой, если размывается кадр, значит разрешение для старых устройств, или для экономии. Ютубу надо подсказывать, нужны Вам субтитры, на каком языке, какой кадр. Если картинка красивая, я могу не трогать ничего. А если мылит, я прошу повысить качество, для удовольствия!
 

Свидетель

Well-Known Member
3 Янв 2020
1,308
600
113
55
Gender
Female
А ничего, что сами видео не в 4К?
В тех, которые у меня скачаны - там в лучшем случае те же 720.

И я не знаю, есть ли вообще где-то такие видео в 4К.
Меняйте старое на новое!:)
Если "в лучшем случае", значит остальное лежит как на складе из прошлого века!
 

Свидетель

Well-Known Member
3 Янв 2020
1,308
600
113
55
Gender
Female
YouTube поддерживает перевод только в настольной версии.
Вот как это активируется:
Зачем тому, кто учит язык, перевод субтитров!!?
Наоборот можно, русские фильмы смотреть с английскими субтитрами, на пользу!
 

dok34.ru

Ошибающийся
7 Фев 2010
119,744
7,479
113
56
Gender
Male
Фильм называется Sacred Band of Thebes.

Посмотреть вложение 2889
...так бы сразу и сказали :)
Я переводить пытался :)
Античных фиванцев :)
"и смех, и грех" :)
Screenshot_2021-05-05-09-50-18-286_com.vanced.android.youtube.jpg

Вот в Vr режим, и разрешение приличное. Я переключил с Авто и наблюдаю разницу!
Ммм, статеечка. :)
Спасибо!
Пожалуйста!:))

Наверное.
На нем не заметно разницы между обычной трансляцией канала и HD-трансляцией канала.
А она есть, на самом деле.
Сами знаете.
 

dok34.ru

Ошибающийся
7 Фев 2010
119,744
7,479
113
56
Gender
Male
Это терпимое
Чуть выше качество, видите размер файла?
2018 год, точно не у пиратов есть не только 720р
Вот оф.трейлер, вроде, выбор разрешения есть, вероятно и в полноценной фильме так же.
Так что наслаждаться можно :)
 
  • Like
Реакции: Wilbur

Wilbur

Well-Known Member
28 Окт 2013
31,809
1,545
113
28
Gender
Male
Вот оф.трейлер, вроде, выбор разрешения есть, вероятно и в полноценной фильме так же.
Так что наслаждаться можно :)

Мне в проигрывателе в "Информации о файле" вот что пишут про первую часть фильма:


General
Complete name : C:\Users\ganym\Desktop\Sacred Band Of Thebes\Sacred Band Of Thebes Gay 1.mp4
Format : MPEG-4
Format profile : Base Media
Codec ID : isom (isom/iso2/avc1/mp41)
File size : 165 MiB
Duration : 24 min 17 s
Overall bit rate mode : Variable
Overall bit rate : 949 kb/s
Encoded date : UTC 2021-03-11 01:43:19
Tagged date : UTC 2021-03-11 01:43:19

Video
ID : 1
Format : AVC
Format/Info : Advanced Video Codec
Format profile : High@L3.1
Format settings : CABAC / 4 Ref Frames
Format settings, CABAC : Yes
Format settings, ReFrames : 4 frames
Codec ID : avc1
Codec ID/Info : Advanced Video Coding
Duration : 24 min 17 s
Bit rate : 815 kb/s
Width : 1 280 pixels
Height : 720 pixels
Display aspect ratio : 16:9
Frame rate mode : Constant
Frame rate : 25.000 FPS
Color space : YUV
Chroma subsampling : 4:2:0
Bit depth : 8 bits
Scan type : Progressive
Bits/(Pixel*Frame) : 0.035
Stream size : 142 MiB (86%)
Title : VideoHandle
Writing library : x264 core 148 r2638M 7599210
Encoding settings : cabac=1 / ref=3 / deblock=1:0:0 / analyse=0x3:0x113 / me=hex / subme=7 / psy=1 / psy_rd=1.00:0.00 / mixed_ref=1 / me_range=16 / chroma_me=1 / trellis=0 / 8x8dct=1 / cqm=0 / deadzone=21,11 / fast_pskip=1 / chroma_qp_offset=-2 / threads=12 / lookahead_threads=2 / sliced_threads=0 / nr=0 / decimate=1 / interlaced=0 / bluray_compat=0 / constrained_intra=0 / bframes=8 / b_pyramid=2 / b_adapt=1 / b_bias=0 / direct=1 / weightb=1 / open_gop=0 / weightp=2 / keyint=50 / keyint_min=5 / scenecut=40 / intra_refresh=0 / rc_lookahead=40 / rc=crf / mbtree=1 / crf=28.0 / qcomp=0.60 / qpmin=0 / qpmax=69 / qpstep=4 / ip_ratio=1.40 / aq=1:1.00
Language : English
Encoded date : UTC 2021-03-11 01:42:42
Tagged date : UTC 2021-03-11 01:43:19
Codec configuration box : avcC

Audio
ID : 2
Format : AAC LC
Format/Info : Advanced Audio Codec Low Complexity
Codec ID : mp4a-40-2
Duration : 24 min 17 s
Bit rate mode : Variable
Bit rate : 128 kb/s
Nominal bit rate : 44.1 kb/s
Channel(s) : 2 channels
Channel layout : L R
Sampling rate : 44.1 kHz
Frame rate : 43.066 FPS (1024 SPF)
Compression mode : Lossy
Stream size : 22.2 MiB (13%)
Title : SoundHandle
Language : English
Encoded date : UTC 2021-03-11 01:42:42
Tagged date : UTC 2021-03-11 01:43:19

Тут есть инфа про качество видео? Не пойму что-то.

Я переводить пытался :)
Античных фиванцев :)
У Вас на скриншоте мультик, видимо образовательный.
А я скачивал именно фильм, а не мультик.

:)

А она есть, на самом деле.
Сами знаете.
На ноуте, если смотреть на каком нибудь пиратском сайте видеотрансляцию - заметна разница.

Это терпимое
Реально 720.
Как я и говорил.
 

dok34.ru

Ошибающийся
7 Фев 2010
119,744
7,479
113
56
Gender
Male
Как проходят майские? Уже не знаете, чем заняться?

Понимаем! Поэтому, хотим предложить вам совместить приятное с полезным и заглянуть к нам на бесплатный урок.
Вы познакомитесь с нашим чудесным методистом, кто четко определит ваш уровень и даст реальные советы по изучению английского.
Но и это ещё не всё!
Ловите подборку с очень популярным фразовым глаголом.
5179d62b-077f-684b-1151-6dbb88e215d2.png
TO TAKE OFF = снимать одежду, взлетать (о самолёте)
TO TAKE UP = начинать заниматься чем-то (хобби, спортом)
TO TAKE AFTER = быть походим (на отца, мать)
TO TAKE OUT = вывести (в свет)
TO TAKE IN = понять, осознать
TO TAKE BACK = возвращать
TO TAKE DOWN = снимать, убирать
TO TAKE ON = брать на работу
 

dok34.ru

Ошибающийся
7 Фев 2010
119,744
7,479
113
56
Gender
Male
Тут есть инфа про качество видео? Не пойму что-то.
Есть.
File size : 165 MiB
Duration : 24 min 17 s
Overall bit rate mode : Variable
Overall bit rate : 949 kb/s
Битрейт отличается от 30000кбит.с, верно?
У качественного видео с HD FHD разрешением.
Размер файла поэтому малый, актуально было, когда инет был на модемах :)
На безрыбье ирак рыба но лучше ищите выше битрейт.
Хоть 10-15Мбит\с